FFmpeg: Convertendo VOBs em MPEGs em Ubuntu

Para converter um ficheiro .VOB não encriptado extraído préviamente de um DVD Video sob o Ubuntu podemos recorrer à ferramenta ffmpeg que pode ser carregada da Internet gratuitamente e após a sua instalação numa janela de Terminal invocar a seguinte instrução:

ffmpeg -i VTS_02_1.VOB -target vcd VTS_02_1_ffmpeg.mpg
A qual resultará em:

FFmpeg version SVN-rUNKNOWN, Copyright (c) 2000-2004 Fabrice Bellard
configuration: –enable-gpl –enable-pp –enable-pthreads –enable-vorbis –enable-libogg –enable-a52 –enable-dts –enable-libgsm –enable-dc1394 –disable-debug –enable-shared –prefix=/usr
libavutil version: 0d.49.0.0
libavcodec version: 0d.51.11.0
libavformat version: 0d.50.5.0
built on Jan 28 2007 22:48:38, gcc: 4.1.2 20070106 (prerelease) (Ubuntu 4.1.1-21ubuntu7)
Input #0, mpeg, from ‘VTS_02_1.VOB’:
Duration: 00:23:59.2, start: 0.287267, bitrate: 2328 kb/s
Stream #0.0[0x1e0]: Video: mpeg2video, yuv420p, 720×576, 9000 kb/s, 25.00 fps(r)
Stream #0.1[0x80]: Audio: ac3, 48000 Hz, stereo, 192 kb/s
Assuming PAL for target.
Output #0, vcd, to ‘VTS_02_1_ffmpeg.mpg’:
Stream #0.0: Video: mpeg1video, yuv420p, 352×288, q=2-31, 1150 kb/s, 25.00 fps(c)
Stream #0.1: Audio: mp2, 44100 Hz, stereo, 224 kb/s
Stream mapping:
Stream #0.0 -> #0.0
Stream #0.1 -> #0.1
No accelerated IMDCT transform found
Press [q] to stop encoding
frame=36018 q=2.0 Lsize= 244531kB time=1440.6 bitrate=1390.5kbits/s
video:202240kB audio:39392kB global headers:0kB muxing overhead 1.199756%
rmartins@quintus:~/Desktop$ split

Depois, se precisarmos, podemos segmente o .mpg resultante em várias parcelas usando o já conhecido mpgtx…

mpgtx -s VTS_02_1_ffmpeg.mpg {99M}
Now processing VTS_02_1_ffmpeg.mpg [1/2] … 100.00%
Now processing VTS_02_1_ffmpeg.mpg [2/2] … 100.00%
E pronto… Lá ficam mais umas dicas para que se aventurando nos mares do Linux, como eu…

Categories: Ubuntu | Deixe um comentário

Navegação de artigos

Deixe uma Resposta

Preencha os seus detalhes abaixo ou clique num ícone para iniciar sessão:

Logótipo da WordPress.com

Está a comentar usando a sua conta WordPress.com Terminar Sessão /  Alterar )

Google photo

Está a comentar usando a sua conta Google Terminar Sessão /  Alterar )

Imagem do Twitter

Está a comentar usando a sua conta Twitter Terminar Sessão /  Alterar )

Facebook photo

Está a comentar usando a sua conta Facebook Terminar Sessão /  Alterar )

Connecting to %s

Create a free website or blog at WordPress.com.

Eleitores de Portugal (Associação Cívica)

Associação dedicada à divulgação e promoção da participação eleitoral e política dos cidadãos

Vizinhos em Lisboa

A Vizinhos em Lisboa tem em vista a representação e defesa dos interesses dos moradores residentes nas áreas, freguesias, bairros do concelho de Lisboa nas áreas de planeamento, urbanismo, valorização do património edificado, mobilidade, equipamentos, bem-estar, educação, defesa do património, ambiente e qualidade de vida.

Vizinhos do Areeiro

Núcleo do Areeiro da associação Vizinhos em Lisboa: Movimento de Vizinhos de causas locais e cidadania activa

Vizinhos do Bairro de São Miguel

Movimento informal, inorgânico e não-partidário (nem autárquico independente) de Vizinhos

TRAVÃO ao Alojamento Local

O Alojamento Local, o Uniplaces e a Gentrificação de Lisboa e Porto estão a destruir as cidades

Não aos Serviços de Valor Acrescentado nas Facturas de Comunicações !

Movimento informal de cidadãos contra os abusos dos SVA em facturas de operadores de comunicações

Vizinhos de Alvalade

Movimento informal, inorgânico e não-partidário (nem autárquico independente) de Vizinhos de Alvalade

anExplica

PEDAÇOS DE SABER

Subscrição Pública

Plataforma independente de participação cívica

Rede Vida

Just another WordPress.com weblog

Vizinhos do Areeiro

Movimento informal, inorgânico e não-partidário (nem autárquico independente) de Vizinhos do Areeiro

MDP: Movimento pela Democratização dos Partidos Políticos

Movimento apartidário e transpartidário de reforma da democracia interna nos partidos políticos portugueses

Operadores Marítimo-Turísticos de Cascais

Actividade dos Operadores Marítimo Turísticos de Cascais

MaisLisboa

Núcleo MaisDemocracia.org na Área Metropolitana de Lisboa

THE UNIVERSAL LANGUAGE UNITES AND CREATES EQUALITY

A new world with universal laws to own and to govern all with a universal language, a common civilsation and e-democratic culture.

looking beyond borders

foreign policy and global economy

%d bloggers like this: